Smowtion

Wednesday, January 8, 2014

Escape Plan (2013)

Escape Plan 2013 HDRip x264 AAC-MiLLENiUM

Image

Information
Escape Plan 2013 HDRip x264 AAC-MiLLENiUM                  

General 

Source...............: HDTV 1080p-KingStoner [THANKS] 
IMDb Information.... : http://www.imdb.com/title/tt1211956/ 
Sample Included......: yes 

General 
Complete name                            : Escape Plan 2013 HDRip x264 AAC-MiLLENiUM.mp4 
Format                                   : MPEG-4 
Format profile                           : Base Media 
Codec ID                                 : isom 
File size                                : 727 MiB 
Duration                                 : 1h 50mn 
Overall bit rate mode                    : Variable 
Overall bit rate                         : 919 Kbps 
Encoded date                             : UTC 2014-01-06 21:02:10 
Tagged date                              : UTC 2014-01-06 21:02:10 

Video 
ID                                       : 1 
Format                                   : AVC 
Format/Info                              : Advanced Video Codec 
Format profile                           : High@L4.1 
Format settings, CABAC                   : Yes 
Format settings, ReFrames                : 3 frames 
Codec ID                                 : avc1 
Codec ID/Info                            : Advanced Video Coding 
Duration                                 : 1h 50mn 
Bit rate mode                            : Variable 
Bit rate                                 : 663 Kbps 
Maximum bit rate                         : 40.0 Mbps 
Width                                    : 720 pixels 
Height                                   : 304 pixels 
Display aspect ratio                     : 2.35:1 
Frame rate mode                          : Constant 
Frame rate                               : 25.000 fps 
Color space                              : YUV 
Chroma subsampling                       : 4:2:0 
Bit depth                                : 8 bits 
Scan type                                : Progressive 
Bits/(Pixel*Frame)                       : 0.121 
Stream size                              : 525 MiB (72%) 
Writing library                          : x264 core 140 r2377 1ca7bb9 

Audio 
ID                                       : 2 
Format                                   : AAC 
Format/Info                              : Advanced Audio Codec 
Format profile                           : LC 
Codec ID                                 : 40 
Duration                                 : 1h 50mn 
Bit rate mode                            : Variable 
Bit rate                                 : 251 Kbps 
Maximum bit rate                         : 259 Kbps 
Channel(s)                               : 2 channels 
Channel positions                        : Front: L R 
Sampling rate                            : 48.0 KHz 
Compression mode                         : Lossy 
Stream size                              : 199 MiB (27%) 
Language                                 : English 
Encoded date                             : UTC 2014-01-06 21:02:30 
Tagged date                              : UTC 2014-01-06 21:02:33 

Plot 

When a structural-security authority finds himself set up and incarcerated in the world's most secret and secure prison, he has to use his skills to escape with help from the inside.

Screenshots

Image

Image

Download

No comments:

Post a Comment

There was an error in this gadget

You might also like: