Smowtion

Wednesday, January 8, 2014

The Hobbit-The Desolation of Smaug (2013)

The Hobbit-The Desolation of Smaug 2013 DVDScr XVID AC3

Image

Information

The.Hobbit-The.Desolation.of.Smaug.2013.DVDScr.XVID.AC3.Hive-CM8 

Thx Hive 

CM8 Doing It Right The First Time 


Source: DVDSCR to mp4 Encode 

Encode: 

well, 4 days earlier than last year!!! 

got that Encode from the disc,quality was still nice, had security stuff upfront --> removed 
video had a 3 line security msg text at the bottom, nothing we havent read before, 
2 lines were in the black bar area below so they got cropped away anyway 
1 line is still showin 3 times during the movie, near start,1h,2h mark. nothing fancy, besides that clear screener 
Video was a bit dark and not that sharp, so i added brightness, sharpness,contrast, and enhanced colours a bit. 

Resolution was 640x3something and not 720x304 when i got it, so no reason for me to upscale it, would only loose more quality 

didnt go for HQ Tag, since i couldnt do it from the original disc myself, 
if i do get the full disc i will do a HQ version again, but i doubt it will show up anywhere. 

Audio was sweet English Stereo, nothing to do on that part 

got nice and will do me till i get full disc or retail 
enjoy 

Video: 636x264 @bitrate 1500 2pass 
Audio: English AC3 Stereo 2.0 
Sample: yes included 



http://www.imdb.com/title/tt1170358/ 


General 
Complete name                  : The.Hobbit-The.Desolation.of.Smaug.2013.DVDScr.XVID.AC3.Hive-CM8.avi 
Format                         : AVI 
Format/Info                    : Audio Video Interleave 
File size                      : 1.99 GiB 
Duration                       : 2h 41mn 
Overall bit rate               : 1 767 Kbps 
Writing application            : Nandub v1.0rc2 
Writing library                : Nandub build 1853/release 

Video 
ID                             : 0 
Format                         : MPEG-4 Visual 
Format profile                 : Advanced Simple@L5 
Format settings, BVOP          : 2 
Format settings, QPel          : Yes 
Format settings, GMC           : No warppoints 
Format settings, Matrix        : Default (H.263) 
Muxing mode                    : Packed bitstream 
Codec ID                       : XVID 
Codec ID/Hint                  : XviD 
Duration                       : 2h 41mn 
Bit rate                       : 1 499 Kbps 
Width                          : 636 pixels 
Height                         : 264 pixels 
Display aspect ratio           : 2.40:1 
Frame rate                     : 29.970 fps 
Color space                    : YUV 
Chroma subsampling             : 4:2:0 
Bit depth                      : 8 bits 
Scan type                      : Progressive 
Compression mode               : Lossy 
Bits/(Pixel*Frame)             : 0.298 
Stream size                    : 1.69 GiB (85%) 
Writing library                : XviD 1.2.1 (UTC 2008-12-04) 

Audio 
ID                             : 1 
Format                         : AC-3 
Format/Info                    : Audio Coding 3 
Mode extension                 : CM (complete main) 
Format settings, Endianness    : Big 
Codec ID                       : 2000 
Duration                       : 2h 41mn 
Bit rate mode                  : Constant 
Bit rate                       : 256 Kbps 
Channel(s)                     : 2 channels 
Channel positions              : Front: L R 
Sampling rate                  : 48.0 KHz 
Bit depth                      : 16 bits 
Compression mode               : Lossy 
Stream size                    : 295 MiB (14%) 
Alignment                      : Split accross interleaves 
Interleave, duration           : 33 ms (1.00 video frame) 
Interleave, preload duration   : 500 ms 



Plot: 

The dwarves, along with Bilbo Baggins and Gandalf the Grey, continue their quest to reclaim Erebor, 
their homeland, from Smaug. Bilbo Baggins is in possession of a mysterious and magical ring. 


Cast: 

Ian McKellen ... Gandalf 
Martin Freeman ... Bilbo 
Richard Armitage ... Thorin 
Ken Stott ... Balin 
Graham McTavish ... Dwalin 
Orlando Bloom ... Legolas 
Evangeline Lilly ... Tauriel 
Cate Blanchett ... Galadriel

Screenshots

Image

Image

Download


Image


No comments:

Post a Comment

There was an error in this gadget

You might also like: